有哪些好听的现代纯音乐啊


 发布时间:2020-10-22 20:14:04

这类曲子 应该去听 immediate music Audiomachine two steps from hell X-RAY DOG 这些专门制作史诗音乐的 团体的作品 比如 1.50 Cent - Ready for war 2.Audiomachine - Danuvius 3.Immediate Music - Lacrimosa 4.Brand X Music - Expelled 5.Mix:Fallen Army 6.Two Steps From Hell - Sky Titans 7.Pride FC - Opening Theme 8.300 violin orchestra 9.Immediate Music - Imperitum 10.Two Steps From Hell- Magika 11.Two Steps From Hell - Heart Of Courage 12.Steve Jablonsky - My Name Is Lincoln 13.Two Steps From Hell - Protectors Of The Earth 14.Zack Hemsey - Mind Heist 15.X-Ray Dog - Dethroned 16.Immediate Music-Strength of a Thousand Men 扩展资料: 纯音乐就是作曲初衷就不包含填词的音乐。

作为纯音乐,这种音乐模式完全以纯粹优美的音乐来叙述表达作者的情感,所以一般简称做纯音乐。虽然它没有歌词,但是它完全以自己优美的曲调实现了完美。正因为如此,纯音乐的作曲要求十分的高,要作出一曲优秀的纯音乐除了必需的大量灵感来支持作曲外,还需要作者不单在乐理上,更是在生活体验,人格和精神上有很深的水准造诣。不过需要注意的是,纯音乐的概念是为了区分有词的音乐和没词的音乐,而不是说有词的就是“杂”音乐,毕竟声乐也是一种音乐形式。“纯音乐”这个名称的翻译是根据国人习惯而来的,确切地说,翻译成“无题音乐”或者“无标题音乐”更佳,也不会产生“杂音乐”之类的歧义。所以说,无词的“无题音乐”和有词的“有题音乐”,都叫做音乐,没有纯、杂音乐之分,当然也不存在真正意义上的“纯音乐”。参考链接--百度百科-纯音乐。

能具体一点吗?插曲还是片尾曲 有歌词还是没歌词,是大敌来临的音乐还是战斗胜利的音乐还是天使兽进化为神圣天使兽的音乐。

链接见私信 专辑英文名: Без слов 专辑中文名: Without Words 歌手: И?горь Круто?й.别名: Igor Yakovlevich Krutoy 音乐风格: 轻音乐 资源格式: FLAC 版本: 3CD Box Set 发行时间: 2007年 地区: 俄罗斯 语言: 俄语 简介: 音乐风格:PopMusic/Instrumental 专辑介绍: 伊戈尔·克鲁托伊是俄罗斯著名作曲家、钢琴家。

生于1954年七月二十九日。发行过30张专辑,在俄有自己的唱片公司和广播电台。他的音乐非常的恰到好处,也细腻,也优美,也有悲情,却不伤神不哀怨,任何的情绪在他的音乐里只是流淌的节奏,不停流,也不停留。他是一个真正的艺术家,因为他的纯粹。大家对伊戈尔最熟悉的,应该是那首《悲伤天使》。我也是听了那首曲后,才去找的他的专辑的。虽然他的作品很多,但能找到的就很少。这个3CD版的《Without Words》是我在一个越南的网站上找到。希望大家支持。

这次我发的《Without Words》是一个合集,它之前是分成三张CD来发行的,其中CD1在2000年发行,CD2在2004年发行,而CD3则在2007年发行。这个合集的具体发行时间我并不清楚,估计是07年尾至08年之间,哪位驴友知道确切时间的,请告诉我一声,谢谢。专辑曲目: CD1 01. Epic Of A Friend 02. Evrydice - Dance 03. Tenderness 04. Coctail 'Jazz' 05. When I Close My Eyes 06. Midnight Express 07. Pink Smoke 08. Madison Square 09. Sweet Pleasure 10. Without Words 11. Epic Of A Friend (Remix) CD2 01. A Lullaby For Sashen'ka 02. A Journey With A Fugitive 03. You In My September 04. Contrast 05. I Miss You, Even In My Sleep 06. This World Likes Winners 07. Sad Angel 08. Cherchez La Femme 09. You Were Sent To Me By God 10. La Corrida Del Amor 11. Ballerina 12. City Of Dreams Come True 13. I Like Rain 14. The Eyes Of Love 15. A Dream Seen In A Dream CD3 01. Whole World Is Love 02. Island Of Sun 03. Flight For Happiness 04. Angels' Gulf 05. Autumn Sonata 06. Only For You 07. Metamorphoses 08. A New Year Song For Sashen'ka 09. Evanescent 10. Mamba Of The Krutoys 11. Whisper Of The Palm Leaves In The Warm Wind 12. Cocktail Of Different Women 13. Elegy 14. Carnival Of The Wild World 15. 'Exchange Of Relatives' OST 16. 'Long Way In The Dunes' OST REM GENRE Instrumental REM DATE 2000 REM DISCID 9E0CA60B REM COMMENT chiphu@vozforums.com PERFORMER "Igor Krutoy" TITLE "Without Words (Disc 1)" FILE "01. Epic Of A Friend.flac" WAVE TRACK 01 AUDIO TITLE "Epic Of A Friend" INDEX 01 00:00:00 FILE "02. Evrydice - Dance.flac" WAVE TRACK 02 AUDIO TITLE "Evrydice - Dance" PREGAP 00:02:00 INDEX 01 00:00:00 FILE "03. Tenderness.flac" WAVE TRACK 03 AUDIO TITLE "Tenderness" PREGAP 00:02:01 INDEX 01 00:00:00 FILE "04 Coctail 'Jazz'.flac" WAVE TRACK 04 AUDIO TITLE "Coctail 'Jazz'" PREGAP 00:02:01 INDEX 01 00:00:00 FILE "05. When I Close My Eyes.flac" WAVE TRACK 05 AUDIO TITLE "When I Close My Eyes" PREGAP 00:02:01 INDEX 01 00:00:00 FILE "06. Midnight Express.flac" WAVE TRACK 06 AUDIO TITLE "Midnight Express" PREGAP 00:02:00 INDEX 01 00:00:00 FILE "07. Pink Smoke.flac" WAVE TRACK 07 AUDIO TITLE "Pink Smoke" PREGAP 00:02:00 INDEX 01 00:00:00 FILE "08. Madison Square.flac" WAVE TRACK 08 AUDIO TITLE "Madison Square" PREGAP 00:02:00 INDEX 01 00:00:00 FILE "09. Sweet Pleasure.flac" WAVE TRACK 09 AUDIO TITLE "Sweet Pleasure" PREGAP 00:02:01 INDEX 01 00:00:00 FILE "10. Without Words.flac" WAVE TRACK 10 AUDIO TITLE "Without Words" PREGAP 00:02:00 REM GENRE Instrumental Pop REM DATE 2007 REM DISCID D3127310 REM COMMENT chiphu@vozforums.com PERFORMER "Igor Krutoy" TITLE "Without Words (Disc 3)" FILE "01. Whole World Is Love.flac" WAVE TRACK 01 AUDIO TITLE "Whole World Is Love" INDEX 01 00:00:00 FILE "02. Island Of Sun.flac" WAVE TRACK 02 AUDIO TITLE "Island Of Sun" INDEX 01 00:00:00 FILE "03. Flight For Happiness.flac" WAVE TRACK 03 AUDIO TITLE "Flight For Happiness" INDEX 01 00:00:00 FILE "04. Angels' Gulf.flac" WAVE TRACK 04 AUDIO TITLE "Angels' Gulf" INDEX 01 00:00:00 FILE "05. Autumn Sonata.flac" WAVE TRACK 05 AUDIO TITLE "Autumn Sonata" INDEX 01 00:00:00 FILE "06. Only For You.flac" WAVE TRACK 06 AUDIO TITLE "Only For You" INDEX 01 00:00:00 FILE "07. Metamorphoses.flac" WAVE TRACK 07 AUDIO TITLE "Metamorphoses" INDEX 01 00:00:00 FILE "08 A New Year Song For Sashen'ka.flac" WAVE TRACK 08 AUDIO TITLE "A New Year Song For Sashen'ka" INDEX 01 00:00:00 FILE "09. Evanescent.flac" WAVE TRACK 09 AUDIO TITLE "Evanescent" INDEX 01 00:00:00 FILE "10. Mamba Of The Krutoys.flac" WAVE TRACK 10 AUDIO TITLE "Mamba Of The Krutoys" INDEX 01 00:00:00 FILE "11. Whisper Of The Palm Leaves In The Warm Wind.flac" WAVE TRACK 11 AUDIO TITLE "Whisper Of The Palm Leaves In The Warm Wind" INDEX 01 00:00:00 FILE "12. Cocktail Of Different Women.flac" WAVE TRACK 12 AUDIO TITLE "Cocktail Of Different Women" INDEX 01 00:00:00 FILE "13. Elegy.flac" WAVE TRACK 13 AUDIO TITLE "Elegy" INDEX 01 00:00:00 FILE "14. Carnival Of The Wild World.flac" WAVE TRACK 14 AUDIO TITLE "Carnival Of The Wild World" INDEX 01 00:00:00 FILE "15. 'Exchange Of Relatives' OST.flac" WAVE TRACK 15 AUDIO TITLE "Soundtrack From 'Exchange Of Relatives'" INDEX 01 00:00:00 FILE "16.'Long Way In The Dunes' OST.flac" WAVE TRACK 16 AUDIO TITLE "Soundtrack From 'Long Way In The Dunes'" INDEX 01 00:00:00。

纯音乐 悲伤地 天使

上一篇: 爱音乐网 注册必须用天翼手机吗?

下一篇: 大哥哥大姐姐帮帮忙啊!我是高二生1想考西安音乐学院或四川音乐



发表评论:
相关阅读
网站首页 |网站地图

Copyright © 2012-2020 鸟语歌曲网 版权所有 0.24260